DNS SERVER AENDERNum der staatlichen Zensur zu umgehen. Sollten wir von eurem Provider geseprrt werden, nutzt den TOR BROWSER oder ändert euren DNS SERVER.

Filmwünsche können bei uns im Forum abgegeben werden

Wir Speichern Nicht




 
 
 
Top Releases
Batman.v.Superman.Dawn.of.Ju...
Im.Zweifel.gluecklich.2017.G...
Im.Zweifel.gluecklich.2017.G...
Thelma.2017.GERMAN.720p.BluR...
Thelma.2017.GERMAN.1080p.Blu...
Thelma.2017.GERMAN.DUAL.COMP...
The.Death.of.Stalin.2017.Ger...
Revenge.2017.German.AC3.DL.1...
Avengers.Infinity.War.2018.G...
Avengers.Infinity.War.2018.G...

Cinedubs
Breaking.In.2018.UNRATED.GER...
Breaking.In.2018.UNRATED.GER...
Breaking.In.2018.UNRATED.GER...
Deadpool.2.2018.Super.Duper....
Deadpool.2.2018.Super.Duper....
Die.Farbe.des.Horizonts.2018...
Die.Farbe.des.Horizonts.2018...
Catch.Me.2018.GERMAN.DL.AC3....
Catch.Me.2018.GERMAN.DL.AC3....
Deadpool.2.Super.Duper.Cut.2...

Neuerscheinungen 2017-18
A.Thought.of.Ecstasy.2017.MU...
Criminal.Squad.THEATRICAL.20...
Criminal.Squad.THEATRICAL.20...
Criminal.Squad.THEATRICAL.20...
Criminal.Squad.THEATRICAL.20...
Action.Point.2018.German.AC3...
A.Thought.of.Ecstasy.2017.Ge...
A.Thought.of.Ecstasy.2017.Ge...
The.Package.2018.GERMAN.720p...
Norma.Rae.1979.MULTi.COMPLET...

XXX
ClubSeventeen.18.08.13.Ashle...
AssParade.18.08.13.Julianna....
Babes.18.08.14.Elena.Koshka....
Beauty-Angels.18.08.14.Foxxi...
Analized.18.08.13.Liv.Revamp...
AllOver30.18.08.14.Elegant.E...
Anilos.18.08.14.Tasha.Grant....
BlackPayBack.E09.Nadia.White...
Bang.RealMILFs.18.08.14.Blat...
BCM.18.08.13.Jennifer.White....
AnalTeenAngels.18.08.14.Lore...
BreakingAsses.18.08.14.Mira....
Cosmid.18.08.08.Karly.Peters...
Cosmid.18.08.10.Jameika.Turn...
BlacksOnBlondes.18.08.14.Can...
Blacked.18.08.13.Marley.Brin...
AllHerLuv.18.06.06.Ivy.Wolfe...
CherryPimps.18.08.13.Aiden.A...
BoxTruckSex.18.08.13.Naomi.B...
BruceAndMorgan.18.08.10.Sexy...

3D
Rampage.Big.Meets.Bigger.3D....
Rampage.Big.Meets.Bigger.3D....
Rampage.Big.Meets.Bigger.3D....
Winter.Games.3D.2013.DUAL.CO...
Tomb.Raider.3D.2018.German.7...
Rampage.Big.Meets.Bigger.3D....
Rampage.Big.Meets.Bigger.3D....
Tomb.Raider.3D.2018.MULTi.CO...
Pacific.Rim.Uprising.3D.2018...
Ready.Player.One.3D.2018.Ger...
Rampage.-.Big.Meets.Bigger.2...
Ready.Player.One.2018.3D.HOU...
Ready.Player.One.2018.3D.HSB...
Ready.Player.One.3D.2018.MUL...
Black.Panther.3D.2018.MULTI....

Old_Stuff
Meine.liebe.Rabenmutter.germ...
Da.Vincis.Demons.S01.Complet...
Eragon.Das.Vermaechtnis.der....
Adele.und.das.Geheimnis.des....
Die.fabelhafte.Welt.der.Amel...
Haus.des.Geldes.S01.German.M...
How.I.Met.Your.Mother.S01.Ge...
The.Dark.Knight.Rises.2012.M...
Weissensee.S03.2015.GERMAN.C...
Weissensee.S01+S02.2010.GERM...
Die.Unglaublichen.-.The.Incr...
Der.grosse.Trick.1978.German...
Sully.2016.MULTi.COMPLETE.BL...
Tremors.3.Die.neue.Brut.2001...
Die.Indianer.von.Cleveland.2...

Filme
Quadrophenia.1979.MULTi.COMP...
Ready.Player.One.2018.German...
Avengers.Infinity.War.2018.3...
Avengers.Infinity.War.2018.3...
Vollblueter.2017.German.DTS....
Mein.Freund.die.Giraffe.2017...
Bleeder.1999.German.DL.AC3D....
Pans.Labyrinth.Ultimate.Edit...
Death.Wish.2018.German.DL.21...
Geisterstädte.2014.German.A...
Oblivion.Open.Matte.2013.Ger...
Alien.Resurrection.Open.Matt...
Der.unheimliche.Zotti.1959.1...
Ash.vs.Evil.Dead.S02.COMPLET...
Ash.vs.Evil.Dead.S02.COMPLET...
MacGyver.S02.GERMAN.DUBBED.D...
Die.Lusitania.-.Drama.im.Atl...
New.York.Street.Photography....
Avengers.Infinity.War.2018.G...
Fabelhafte.Welt.der.Wale.Ger...
Fabelhafte.Welt.der.Wale.Ger...
Disenchantment.S01.COMPLETE....
Disenchantment.S01.COMPLETE....
Avengers.3.Infinity.War.OPEN...

 
 
Mission.Impossible.Fallout.TS.720p.German.MD.x264-cruise
Jahr: 2018
Genre: Action, Spionage
Sprache: Deutsch AC3
Laufzeit: 2h 20mn
Bitrate: 2 456 Kbps
Format: MKV
Größe: 2.41 GiB
Release:

Beschreibung:
Die Geheimorganisation Impossible Mission Force (IMF) ist nach ihrer vorübergehenden Schließung wieder aktiv. IMF-Chef Alan Hunley (Alec Baldwin) schickt seine Agenten Ethan Hunt (Tom Cruise), Benji Dunn (Simon Pegg) und Luther Stickell (Ving Rhames) auf eine heikle Mission, um hochgefährliches, waffenfähiges Plutonium sicherzustellen, das auf dem Schwarzmarkt angeboten wird. Eine aus Weltuntergangsfanatikern bestehende Terroristengruppe plant, es sich unter den Nagel zu reißen und daraus tragbare Atombomben zu bauen. Ihr Ziel: die Welt in Chaos zu stürzen. Hunts Mission schlägt jedoch fatal fehl, weil er das Leben seiner Partner über den Erfolg seines Auftrags stellt. Das bringt das IMF unter Druck, sodass die CIA-Chefin Erica Sloane (Angela Bassett) die Geduld verliert und ihren berüchtigten Agenten August Walker (Henry Cavill) zur Verstärkung schickt…
Für alle Ungeduldigen
Bildqualität: 7,0 / 10
Tonqualität: 9,0 / 10


Complete name                            : cruise-mi6fallout.mkv
Format                                   : Matroska
Format version                           : Version 4 / Version 2
File size                                : 2.41 GiB
Duration                                 : 2h 20mn
Overall bit rate mode                    : Variable
Overall bit rate                         : 2 456 Kbps
Movie name                               : Mission Impossible Fallout
Encoded date                             : UTC 2018-08-02 06:18:58
Writing application                      : mkvmerge v24.0.0 ('Beyond The Pale') 64-bit
Writing library                          : libebml v1.3.6 + libmatroska v1.4.9
DURATION                                 : 02:20:13.231000000
NUMBER_OF_FRAMES                         : 322069
NUMBER_OF_BYTES                          : 201615194
_STATISTICS_WRITING_APP                  : mkvmerge v24.0.0 ('Beyond The Pale') 64-bit
_STATISTICS_WRITING_DATE_UTC             : 2018-08-02 06:18:58
_STATISTICS_TAGS                         : BPS DURATION NUMBER_OF_FRAMES NUMBER_OF_BYTES

Video
ID                                       : 1
Format                                   : AVC
Format/Info                              : Advanced Video Codec
Format profile                           : [email protected]
Format settings, CABAC                   : Yes
Format settings, ReFrames                : 9 frames
Codec ID                                 : V_MPEG4/ISO/AVC
Duration                                 : 2h 20mn
Bit rate mode                            : Variable
Bit rate                                 : 2 267 Kbps
Maximum bit rate                         : 18.0 Mbps
Width                                    : 1 070 pixels
Height                                   : 464 pixels
Display aspect ratio                     : 2.35:1
Frame rate mode                          : Constant
Frame rate                               : 29.970 fps
Standard                                 : Component
Color space                              : YUV
Chroma subsampling                       : 4:2:0
Bit depth                                : 8 bits
Scan type                                : Progressive
Bits/(Pixel*Frame)                       : 0.152
Stream size                              : 2.17 GiB (90%)
Writing library                          : x264 core 148
Encoding settings                        : cabac=1 / ref=9 / deblock=1:0:0 / analyse=0x3:0x113 / me=hex / subme=7 / psy=1 / psy_rd=1.00:0.00 / mixed_ref=1 / me_range=16 / chroma_me=1 / trellis=1 / 8x8dct=1 / cqm=1 / deadzone=21,11 / fast_pskip=1 / chroma_qp_offset=-2 / threads=12 / lookahead_threads=2 / sliced_threads=0 / slices=1 / nr=0 / decimate=1 / interlaced=0 / minigop=0 / stitchable=1 / constrained_intra=0 / bframes=3 / b_pyramid=0 / b_adapt=1 / b_bias=0 / direct=1 / weightb=1 / open_gop=0 / weightp=2 / keyint=250 / keyint_min=25 / scenecut=40 / intra_refresh=0 / rc_lookahead=40 / rc=abr / mbtree=1 / bitrate=2267 / ratetol=1.0 / qcomp=0.60 / qpmin=3 / qpmax=69 / qpstep=4 / vbv_maxrate=18000 / vbv_bufsize=18000 / nal_hrd=vbr / filler=0 / ip_ratio=1.40 / aq=1:1.00
Language                                 : German
Default                                  : Yes
Forced                                   : No
Color primaries                          : BT.709
Transfer characteristics                 : BT.709
Matrix coefficients                      : BT.709

Audio
ID                                       : 2
Format                                   : MPEG Audio
Format version                           : Version 1
Format profile                           : Layer 3
Mode                                     : Joint stereo
Mode extension                           : MS Stereo
Codec ID                                 : A_MPEG/L3
Codec ID/Hint                            : MP3
Duration                                 : 2h 20mn
Bit rate mode                            : Constant
Bit rate                                 : 192 Kbps
Channel(s)                               : 2 channels
Sampling rate                            : 44.1 KHz
Compression mode                         : Lossy
Stream size                              : 193 MiB (8%)
Language                                 : German
Default                                  : Yes
Forced                                   : No


Download:
Share Online Share OnlineShare OnlineShare Online
 

Kommentare

  1. Geschrieben am 3. August 2018, 14:10 Uhr von Lollimann · #

    Was soll der Käse denn?
    Mitten im Film Werbung.

  2. Geschrieben am 3. August 2018, 16:39 Uhr von Amokk · #

    Also das Ihr so etwas hier auf HD hochladet ist echt armselig. Das ist ein Film wie aus alten Download Zeiten. Blechern, ganz miese Bildqualität, Untertitel, und Pixelmatsche. Das solltet Ihr hier schnelle wieder löschen.

  3. Geschrieben am 3. August 2018, 18:23 Uhr von film_freak · #

    LoL TS und MIC und dann solche Bewertungen, ich vermisse da einen Smiley für Ironie.

    / Die Bewertung bezieht sich auf TS und Mic.. :) Keine Ahnung, wer sich Cinedub runterlädt, statt ins Kino zu gehen, denn die Leute verstehe ich nicht. Am Besten ist danach immer das Gemecker weil die Quali so mies ist. Selbst schuld. Ich habe noch nie so etwas heruntergeladen.