DNS SERVER AENDERNum der staatlichen Zensur zu umgehen. Sollten wir von eurem Provider geseprrt werden, nutzt den TOR BROWSER oder ändert euren DNS SERVER.

Filmwünsche können bei uns im Forum abgegeben werden

Wir Speichern Nicht




 
 
 
Top Releases
Batman.v.Superman.Dawn.of.Ju...
Im.Zweifel.gluecklich.2017.G...
Im.Zweifel.gluecklich.2017.G...
Thelma.2017.GERMAN.720p.BluR...
Thelma.2017.GERMAN.1080p.Blu...
Thelma.2017.GERMAN.DUAL.COMP...
The.Death.of.Stalin.2017.Ger...
Revenge.2017.German.AC3.DL.1...
Avengers.Infinity.War.2018.G...
Avengers.Infinity.War.2018.G...

Cinedubs
Breaking.In.2018.UNRATED.GER...
Breaking.In.2018.UNRATED.GER...
Breaking.In.2018.UNRATED.GER...
Deadpool.2.2018.Super.Duper....
Deadpool.2.2018.Super.Duper....
Die.Farbe.des.Horizonts.2018...
Die.Farbe.des.Horizonts.2018...
Catch.Me.2018.GERMAN.DL.AC3....
Catch.Me.2018.GERMAN.DL.AC3....
Deadpool.2.Super.Duper.Cut.2...

Neuerscheinungen 2017-18
A.Thought.of.Ecstasy.2017.MU...
Criminal.Squad.THEATRICAL.20...
Criminal.Squad.THEATRICAL.20...
Criminal.Squad.THEATRICAL.20...
Criminal.Squad.THEATRICAL.20...
Action.Point.2018.German.AC3...
A.Thought.of.Ecstasy.2017.Ge...
A.Thought.of.Ecstasy.2017.Ge...
The.Package.2018.GERMAN.720p...
Norma.Rae.1979.MULTi.COMPLET...

XXX
ClubSeventeen.18.08.13.Ashle...
AssParade.18.08.13.Julianna....
Babes.18.08.14.Elena.Koshka....
Beauty-Angels.18.08.14.Foxxi...
Analized.18.08.13.Liv.Revamp...
AllOver30.18.08.14.Elegant.E...
Anilos.18.08.14.Tasha.Grant....
BlackPayBack.E09.Nadia.White...
Bang.RealMILFs.18.08.14.Blat...
BCM.18.08.13.Jennifer.White....
AnalTeenAngels.18.08.14.Lore...
BreakingAsses.18.08.14.Mira....
Cosmid.18.08.08.Karly.Peters...
Cosmid.18.08.10.Jameika.Turn...
BlacksOnBlondes.18.08.14.Can...
Blacked.18.08.13.Marley.Brin...
AllHerLuv.18.06.06.Ivy.Wolfe...
CherryPimps.18.08.13.Aiden.A...
BoxTruckSex.18.08.13.Naomi.B...
BruceAndMorgan.18.08.10.Sexy...

3D
Rampage.Big.Meets.Bigger.3D....
Rampage.Big.Meets.Bigger.3D....
Rampage.Big.Meets.Bigger.3D....
Winter.Games.3D.2013.DUAL.CO...
Tomb.Raider.3D.2018.German.7...
Rampage.Big.Meets.Bigger.3D....
Rampage.Big.Meets.Bigger.3D....
Tomb.Raider.3D.2018.MULTi.CO...
Pacific.Rim.Uprising.3D.2018...
Ready.Player.One.3D.2018.Ger...
Rampage.-.Big.Meets.Bigger.2...
Ready.Player.One.2018.3D.HOU...
Ready.Player.One.2018.3D.HSB...
Ready.Player.One.3D.2018.MUL...
Black.Panther.3D.2018.MULTI....

Old_Stuff
Meine.liebe.Rabenmutter.germ...
Da.Vincis.Demons.S01.Complet...
Eragon.Das.Vermaechtnis.der....
Adele.und.das.Geheimnis.des....
Die.fabelhafte.Welt.der.Amel...
Haus.des.Geldes.S01.German.M...
How.I.Met.Your.Mother.S01.Ge...
The.Dark.Knight.Rises.2012.M...
Weissensee.S03.2015.GERMAN.C...
Weissensee.S01+S02.2010.GERM...
Die.Unglaublichen.-.The.Incr...
Der.grosse.Trick.1978.German...
Sully.2016.MULTi.COMPLETE.BL...
Tremors.3.Die.neue.Brut.2001...
Die.Indianer.von.Cleveland.2...

Filme
Quadrophenia.1979.MULTi.COMP...
Ready.Player.One.2018.German...
Avengers.Infinity.War.2018.3...
Avengers.Infinity.War.2018.3...
Vollblueter.2017.German.DTS....
Mein.Freund.die.Giraffe.2017...
Bleeder.1999.German.DL.AC3D....
Pans.Labyrinth.Ultimate.Edit...
Death.Wish.2018.German.DL.21...
Geisterstädte.2014.German.A...
Oblivion.Open.Matte.2013.Ger...
Alien.Resurrection.Open.Matt...
Der.unheimliche.Zotti.1959.1...
Ash.vs.Evil.Dead.S02.COMPLET...
Ash.vs.Evil.Dead.S02.COMPLET...
MacGyver.S02.GERMAN.DUBBED.D...
Die.Lusitania.-.Drama.im.Atl...
New.York.Street.Photography....
Avengers.Infinity.War.2018.G...
Fabelhafte.Welt.der.Wale.Ger...
Fabelhafte.Welt.der.Wale.Ger...
Disenchantment.S01.COMPLETE....
Disenchantment.S01.COMPLETE....
Avengers.3.Infinity.War.OPEN...

 
 
Legends.of.Tomorrow.S03.GERMAN.720p.HDTV.x264-SCENE
Jahr: 2017
Genre: Action | Abenteuer | Drama
Sprache: Deutsch AC3
Laufzeit: 40min je Folge
Bitrate: 2700 Kbps
Format: MKV
Größe: 900 MB je Folge
Release:

Beschreibung:

In „Legends of Tomorrow“ steht Rip Hunter im Zentrum, der die Zukunft gesehen hat und sein Bestes versucht diese zu verhindern. Der Zeitreisende rekrutiert eine bunt gemischte Truppe aus Helden und Schurken, die eine unaufhaltsame Bedrohung stoppen sollen. Dabei ist nicht nur der Planet in Gefahr, sondern das Konzept von Raum und Zeit. Kann dieses zusammengewürfelte Team diese unsterbliche Gefahr aufhalten?

 

enthaltene Folgen:

Legends.of.Tomorrow.S03E01.GERMAN.720p.HDTV.x264.PROPER-ACED

Legends.of.Tomorrow.S03E02.GERMAN.720p.HDTV.x264-ACED

DCs.Legends.of.Tomorrow.S03E03.German.HDTV.720p.x264-ARC NEU

Legends.of.Tomorrow.S03E04.GERMAN.720p.HDTV.x264-ACED NEU

 



General
Complete name                            : Legends.of.Tomorrow.S03E01.GERMAN.720p.HDTV.x264.PROPER-ACED\Legends.of.Tomorrow.S03E01.GERMAN.720p.HDTV.x264.PROPER-ACED.mkv
Format                                   : Matroska
Format version                           : Version 2
File size                                : 922 MiB
Duration                                 : 40mn 2s
Overall bit rate                         : 3 221 Kbps
Encoded date                             : UTC 2018-07-17 05:48:38
Writing application                      : mkvmerge v24.0.0 ('Beyond The Pale') 64-bit
Writing library                          : libebml v1.3.6 + libmatroska v1.4.9
DURATION                                 : 00:40:02.624000000
NUMBER_OF_FRAMES                         : 75082
NUMBER_OF_BYTES                          : 115325952
_STATISTICS_WRITING_APP                  : mkvmerge v24.0.0 ('Beyond The Pale') 64-bit
_STATISTICS_WRITING_DATE_UTC             : 2018-07-17 05:48:38
_STATISTICS_TAGS                         : BPS DURATION NUMBER_OF_FRAMES NUMBER_OF_BYTES

Video
ID                                       : 1
Format                                   : AVC
Format/Info                              : Advanced Video Codec
Format profile                           : [email protected]
Format settings, CABAC                   : Yes
Format settings, ReFrames                : 5 frames
Codec ID                                 : V_MPEG4/ISO/AVC
Duration                                 : 40mn 2s
Bit rate                                 : 2 773 Kbps
Width                                    : 1 280 pixels
Height                                   : 720 pixels
Display aspect ratio                     : 16:9
Frame rate mode                          : Constant
Frame rate                               : 25.000 fps
Color space                              : YUV
Chroma subsampling                       : 4:2:0
Bit depth                                : 8 bits
Scan type                                : Progressive
Bits/(Pixel*Frame)                       : 0.120
Stream size                              : 794 MiB (86%)
Writing library                          : x264 core 155 r2901 7d0ff22
Encoding settings                        : cabac=1 / ref=5 / deblock=1:-3:-3 / analyse=0x3:0x113 / me=umh / subme=7 / psy=1 / psy_rd=1.00:0.00 / mixed_ref=1 / me_range=16 / chroma_me=1 / trellis=1 / 8x8dct=1 / cqm=0 / deadzone=21,11 / fast_pskip=0 / chroma_qp_offset=-2 / threads=9 / lookahead_threads=1 / sliced_threads=0 / nr=0 / decimate=1 / interlaced=0 / bluray_compat=0 / constrained_intra=0 / bframes=3 / b_pyramid=2 / b_adapt=2 / b_bias=0 / direct=3 / weightb=1 / open_gop=0 / weightp=2 / keyint=250 / keyint_min=25 / scenecut=40 / intra_refresh=0 / rc_lookahead=50 / rc=crf / mbtree=1 / crf=20.0 / qcomp=0.60 / qpmin=0 / qpmax=69 / qpstep=4 / vbv_maxrate=62500 / vbv_bufsize=78125 / crf_max=0.0 / nal_hrd=none / filler=0 / ip_ratio=1.40 / aq=1:1.00
Default                                  : Yes
Forced                                   : No

Audio
ID                                       : 2
Format                                   : AC-3
Format/Info                              : Audio Coding 3
Mode extension                           : CM (complete main)
Format settings, Endianness              : Big
Codec ID                                 : A_AC3
Duration                                 : 40mn 2s
Bit rate mode                            : Constant
Bit rate                                 : 384 Kbps
Channel(s)                               : 6 channels
Channel positions                        : Front: L C R, Side: L R, LFE
Sampling rate                            : 48.0 KHz
Bit depth                                : 16 bits
Compression mode                         : Lossy
Stream size                              : 110 MiB (12%)
Language                                 : German
Default                                  : Yes
Forced                                   : No



Download:
Share-Online.biz Share-Online.bizShare-Online.bizShare-Online.biz | Rapidgator.net Rapidgator.netRapidgator.netRapidgator.net
 

Kommentare